Skip to main content

moe. Live at The Palladium on 2012-12-28

Audio Preview

etree
moe. Live at The Palladium on 2012-12-28

by moe.



Set 1:

01. Intro/crowd
02. Billy Goat >
03. Not Coming Down >
04. Wormwood >
05. Okayalright
06. Gone
07. Hi & Lo >
08. Puebla
09. banter
10. Plane Crash^ *

Set 2:

01. Intro/crowd
02. Seat Of My Pants >
03. Runaway Overlude
04. Bullet>
05. Kyle's Song >
06. Kids
07. Queen of Everything
08. Moth
09. crowd
10. Alnouncements

Encore:
11. Time Again#
12. Blue Jeans Pizza

*Fan sit in Taylor Frederick
^ Al on Gibson
# Al on mandolin


Collection moe
Band/Artist moe.
Venue The Palladium
Location Worcester, MA

Source Schoeps MK41>KC5>CMC6>Sonosax SX-R4(24bit/96khz)
Lineage WAV>USB>Macbook Pro>Wave Editor(tracking,fades,resample(izotope)/dither(mbit+)to 16 bit/44.1k)>XAct(FLAC 8,ffp,fix sbe)
Taped by Andy Murray
Transferred by Andy Murray

Notes

moe.
2012-12-29
The Palladium
Worcester, MA

Recorded and transferred by Andy Murray

Mics were right of center next to soundboard cage DIN

Schoeps MK41>KC5>CMC6>Sonosax SX-R4(24bit/96khz)

WAV>USB>Macbook Pro>Wave Editor(tracking,fades,resample(izotope)/dither(mbit+)to 16 bit/44.1k)>XAct(FLAC 8,ffp,fix sbe)

Thanks to Brian Vaz for the clamp space

Kung Fu opened for moe.

2 Sets

length expanded size cdr WAVE problems fmt ratio filename
1:32.27 16292348 B --- -- ----- wav 1.0000 moe2012-12-28_mk41_1644_d1t01.wav
16:55.17 179086028 B --- -- ----- wav 1.0000 moe2012-12-28_mk41_1644_d1t02.wav
4:13.06 44643356 B --- -- ----- wav 1.0000 moe2012-12-28_mk41_1644_d1t03.wav
6:40.42 70658828 B --- -- ----- wav 1.0000 moe2012-12-28_mk41_1644_d1t04.wav
4:59.13 52774220 B --- -- ----- wav 1.0000 moe2012-12-28_mk41_1644_d1t05.wav
7:03.16 74654876 B --- -- ----- wav 1.0000 moe2012-12-28_mk41_1644_d1t06.wav
11:29.05 121551404 B --- -- ----- wav 1.0000 moe2012-12-28_mk41_1644_d1t07.wav
7:26.20 78721484 B --- -- ----- wav 1.0000 moe2012-12-28_mk41_1644_d1t08.wav
2:19.49 24634892 B --- -- ----- wav 1.0000 moe2012-12-28_mk41_1644_d1t09.wav
10:17.48 108951740 B --- -- ----- wav 1.0000 moe2012-12-28_mk41_1644_d1t10.wav
1:29.43 15800780 B --- -- ----- wav 1.0000 moe2012-12-28_mk41_1644_d2t01.wav
17:26.64 184664972 B --- -- ----- wav 1.0000 moe2012-12-28_mk41_1644_d2t02.wav
9:54.26 104842796 B --- -- ----- wav 1.0000 moe2012-12-28_mk41_1644_d2t03.wav
14:04.71 149048636 B --- -- ----- wav 1.0000 moe2012-12-28_mk41_1644_d2t04.wav
14:20.35 151786364 B --- -- ----- wav 1.0000 moe2012-12-28_mk41_1644_d2t05.wav
17:20.25 183514844 B --- -- ----- wav 1.0000 moe2012-12-28_mk41_1644_d2t06.wav
7:52.02 83265548 B --- -- ----- wav 1.0000 moe2012-12-28_mk41_1644_d2t07.wav
15:46.47 166984988 B --- -- ----- wav 1.0000 moe2012-12-28_mk41_1644_d2t08.wav
4:19.40 45781724 B --- -- ----- wav 1.0000 moe2012-12-28_mk41_1644_d2t09.wav
1:15.16 13267676 B --- -- ----- wav 1.0000 moe2012-12-28_mk41_1644_d2t10.wav
6:12.10 65644364 B --- -- ----- wav 1.0000 moe2012-12-28_mk41_1644_d2t11.wav
8:53.07 94037708 B --- -- ----- wav 1.0000 moe2012-12-28_mk41_1644_d2t12.wav
191:51.29 2030609576 B 1.0000 (22 files)

comment
Reviews

There are no reviews yet. Be the first one to write a review.
DOWNLOAD OPTIONS
In Collection
moe.
In Collection
Live Music Archive
Uploaded by
andyjah
on 1/4/2013
Views
211
SIMILAR ITEMS (based on metadata)
eye
Title
Date Archived
Creator
moe.
by moe.
etree
eye 125
favorite 0
comment 0
Source: DPA 4011 > V3 Digital > R44 (24/48)
moe.
by moe.
etree
eye 228
favorite 0
comment 0
Source: Schoeps MK41/MK22>KC5>CMC6>Sonosax SX-R4(24bit/96khz)
moe.
by moe.
etree
eye 264
favorite 0
comment 0
Source: DPA 4011 > V3 Digital > R44 (24/96)
moe.
by moe.
etree
eye 109
favorite 0
comment 0
Source: Schoeps MK41/MK22>KC5>CMC6>Sonosax SX-R4(24bit/96khz)
moe.
by moe.
etree
eye 289
favorite 0
comment 0
Source: Schoeps MK41/MK22>KC5>CMC6>Sonosax SX-R4(24bit/96khz)
moe.
by moe.
etree
eye 134
favorite 0
comment 0
Source: Schoeps MK41>KC5>CMC6>Sonosax SX-R4(24bit/96khz)
moe.
by moe.
etree
eye 729
favorite 1
comment 1
favoritefavoritefavoritefavorite ( 1 reviews )
Source: Neumann TLM 170 > Sound Devices 744
moe.
by moe.
etree
eye 152
favorite 0
comment 0
Source: Schoeps MK41>KC5>CMC6>Sonosax SX-R4(24bit/96khz)
moe.
by moe.
etree
eye 153
favorite 0
comment 0
Source: DPA 4011 > V3 Digital > R44 (24/96)
moe.
by moe.
etree
eye 198
favorite 0
comment 0
Source: Schoeps MK4's>Schoeps CMR's>Naiant PFA>Edirol UA-5 (BM2p+)>Edirol R-09HR